El Ultimatum De Bourne BluRayRip AC3 5.1 | Tom.Clancys.Jack.Ryan.S01.German.DD+51.DL.2160p.AmazonUHD.HDR.x265-4SJ | Samantha J. Green - Secrets of Eyes 01 - 03
 


 

DNS SERVER AENDERNum der staatlichen Zensur zu umgehen. Sollten wir von eurem Provider geseprrt werden, nutzt den TOR BROWSER oder ändert euren DNS SERVER.

Filmwünsche können bei uns im Forum abgegeben werden

Wir Speichern Nicht




 
 
 
Top Releases
Deadpool.2.Super.Duper.Cut.2...
David.Brent.Life.on.the.Road...
David.Brent.Life.on.the.Road...
Amanda.Knox.2016.German.DL.D...
Amanda.Knox.2016.German.DL.D...
22.Bullets.2010.German.DL.10...
Unsere.Erde.2.Earth.One.Amaz...
Avengers.Infinity.War.2018.M...
El.Autor.2017.German.1080p.W...
El.Autor.2017.German.720p.WE...

Cinedubs
The.Equalizer.2.TS.LD.German...
Der.Hauptmann.2017.German.AA...
Der.Hauptmann.2017.German.AA...
Ghost.Stories.2017.German.AC...
Ghost.Stories.2017.German.AC...
Oceans.8.German.DL.AC3.Dubbe...
Oceans.8.German.DL.AC3.Dubbe...
Hereditary.Das.Vermaechtnis....
Hereditary.Das.Vermaechtnis....
Oceans.8.2018.German.DL.AC3D...

Neuerscheinungen 2017-18
Vater.des.Jahres.2018.German...
The.End.2017.GERMAN.720p.Blu...
Derren.Brown.The.Push.2018.G...
Derren.Brown.The.Push.2018.G...
Das.Vermaechtnis.des.Weisswe...
Das.Vermaechtnis.des.Weisswe...
Barry.2016.German.DL.720p.WE...
Barry.2016.German.DL.1080p.W...
Godzilla.Eine.Stadt.am.Rande...
Godzilla.Eine.Stadt.am.Rande...

XXX
LaCochonne.18.08.21.Clementi...
KarupsPC.18.08.20.Tarra.And....
MilfsLikeItBig.18.08.21.Nina...
NewSensations.18.08.17.Abell...
Nubiles.18.08.21.Eva.Kays.Wa...
Nubiles.18.08.17.Eva.Kays.Pl...
MetArtX.18.08.21.Sabrisse.A....
ManuelFerrara.18.08.20.Lena....
OldYoungLesbianLove.18.08.20...
MilfHunter.18.08.20.Lela.Sta...
OnlyBlowJob.18.08.16.Silvia....
Nubiles.18.08.20.Eliza.Ibarr...
KinkyFamily.18.08.11.Ana.Ros...
MilfsLikeItBig.18.08.20.Chan...
MetArt.18.08.21.Jennifer.Lov...
Nubiles.18.08.16.Eliza.Ibarr...
MomsBangTeens.18.08.21.Lexi....
Nubiles.18.08.21.Maria.Rubio...
No.Not.My.Wrinkled.Starfish....
NFBusty.18.08.17.Nikki.Delan...

3D
Avengers.Infinity.War.3D.201...
Rampage.Big.Meets.Bigger.3D....
Rampage.Big.Meets.Bigger.3D....
Rampage.Big.Meets.Bigger.3D....
Winter.Games.3D.2013.DUAL.CO...
Tomb.Raider.3D.2018.German.7...
Rampage.Big.Meets.Bigger.3D....
Rampage.Big.Meets.Bigger.3D....
Tomb.Raider.3D.2018.MULTi.CO...
Pacific.Rim.Uprising.3D.2018...
Ready.Player.One.3D.2018.Ger...
Rampage.-.Big.Meets.Bigger.2...
Ready.Player.One.2018.3D.HOU...
Ready.Player.One.2018.3D.HSB...
Ready.Player.One.3D.2018.MUL...

Old_Stuff
Meine.liebe.Rabenmutter.germ...
Da.Vincis.Demons.S01.Complet...
Eragon.Das.Vermaechtnis.der....
Adele.und.das.Geheimnis.des....
Die.fabelhafte.Welt.der.Amel...
Haus.des.Geldes.S01.German.M...
How.I.Met.Your.Mother.S01.Ge...
The.Dark.Knight.Rises.2012.M...
Weissensee.S03.2015.GERMAN.C...
Weissensee.S01+S02.2010.GERM...
Die.Unglaublichen.-.The.Incr...
Der.grosse.Trick.1978.German...
Sully.2016.MULTi.COMPLETE.BL...
Tremors.3.Die.neue.Brut.2001...
Die.Indianer.von.Cleveland.2...

Filme
Warrior.2011.German.DL.DTSD....
Ein.Zwilling.kommt.selten.al...
Ein.Zwilling.kommt.selten.al...
Dream.Cruise.Albtraum.aus.de...
Flodder.Eine.Familie.zum.Knu...
Buck.Rogers.1979.German.DL.A...
Buck.Rogers.1979.German.DL.A...
A.Thought.of.Ecstasy.2017.Ge...
Flicka.1943.German.AC3D.DL.1...
Meine.teuflischen.Nachbarn.1...
Flodder.Forever.Eine.Familie...
Endstation.Horror.UNCUT.1972...
Der.alte.Mann.und.das.Kind.1...
Motel.Massaker.1986.German.A...
Lucifer.S03.COMPLETE.German....
Succession.S01.German.DD51.S...
Succession.S01.German.DD51.S...
Preacher.S03.COMPLETE.German...
Preacher.S03.COMPLETE.German...
Lucifer.S03.COMPLETE.German....
How.to.Party.with.Mom.2018.G...
Agenten.sterben.einsam.aka.W...
The.Mother.of.Tears.UNCUT.20...
Seine.Frau.hilft.Geld.verdie...

 
 
Dream.Cruise.Albtraum.aus.der.Tiefe.2007.German.720p.BluRay.x264-iNKLUSiON
Jahr: 2007
Genre: Horror
Sprache: Deutsch DTS
Laufzeit: 1h 26mn
Bitrate: 5 405 Kbps
Format: MKV
Größe: 3.28 GiB
Release:

Beschreibung:

Seit er als Kind aus nächster Nähe seinem Bruder beim Ertrinken zusah, fühlt sich Jack im und am nassen Element nicht so recht wohl. Jetzt aber wird der in Tokio tätige Anwalt von seinem wichtigsten Klienten zur Jachtpartie eingeladen, und das sagt man nicht so einfach ab. Zumal sich Jack gerade eine Affäre mit der Frau eben dieses Klienten genehmigt. Leider stellt sich erst auf hoher See heraus, dass der Betrogene Bescheid weiß. Doch das ist beileibe nicht das einzige Problem für Jack, den Wasserscheuen.



Complete name                            : inkl-dreamcruise-720p.mkv
Format                                   : Matroska
Format version                           : Version 4 / Version 2
File size                                : 3.28 GiB
Duration                                 : 1h 26mn
Overall bit rate                         : 5 405 Kbps
Encoded date                             : UTC 2018-07-28 14:05:22
Writing application                      : mkvmerge v9.0.1 ('Obstacles') 64bit
Writing library                          : libebml v1.3.3 + libmatroska v1.4.4
DURATION                                 : 01:26:47.030000000
NUMBER_OF_FRAMES                         : 488159
NUMBER_OF_BYTES                          : 982175908
_STATISTICS_WRITING_APP                  : mkvmerge v9.0.1 ('Obstacles') 64bit
_STATISTICS_WRITING_DATE_UTC             : 2018-07-28 14:05:22
_STATISTICS_TAGS                         : BPS DURATION NUMBER_OF_FRAMES NUMBER_OF_BYTES

Video
ID                                       : 1
Format                                   : AVC
Format/Info                              : Advanced Video Codec
Format profile                           : [email protected]
Format settings, CABAC                   : Yes
Format settings, ReFrames                : 5 frames
Codec ID                                 : V_MPEG4/ISO/AVC
Duration                                 : 1h 26mn
Bit rate                                 : 3 895 Kbps
Width                                    : 1 280 pixels
Height                                   : 720 pixels
Display aspect ratio                     : 16:9
Frame rate mode                          : Constant
Frame rate                               : 23.976 fps
Color space                              : YUV
Chroma subsampling                       : 4:2:0
Bit depth                                : 8 bits
Scan type                                : Progressive
Bits/(Pixel*Frame)                       : 0.176
Stream size                              : 2.30 GiB (70%)
Writing library                          : x264 core 155 r2901 7d0ff22
Encoding settings                        : cabac=1 / ref=5 / deblock=1:-1:-1 / analyse=0x3:0x113 / me=umh / subme=7 / psy=1 / psy_rd=1.00:0.00 / mixed_ref=1 / me_range=16 / chroma_me=1 / trellis=1 / 8x8dct=1 / cqm=0 / deadzone=21,11 / fast_pskip=0 / chroma_qp_offset=-2 / threads=12 / lookahead_threads=2 / sliced_threads=0 / nr=0 / decimate=1 / interlaced=0 / bluray_compat=0 / constrained_intra=0 / bframes=3 / b_pyramid=2 / b_adapt=1 / b_bias=0 / direct=3 / weightb=1 / open_gop=0 / weightp=2 / keyint=250 / keyint_min=23 / scenecut=40 / intra_refresh=0 / rc_lookahead=40 / rc=2pass / mbtree=1 / bitrate=3895 / ratetol=1.0 / qcomp=0.60 / qpmin=0 / qpmax=69 / qpstep=4 / cplxblur=20.0 / qblur=0.5 / ip_ratio=1.40 / aq=1:1.00
Default                                  : Yes
Forced                                   : No

Audio
ID                                       : 2
Format                                   : DTS
Format/Info                              : Digital Theater Systems
Mode                                     : 16
Format settings, Endianness              : Big
Codec ID                                 : A_DTS
Duration                                 : 1h 26mn
Bit rate mode                            : Constant
Bit rate                                 : 1 509 Kbps
Channel(s)                               : 6 channels
Channel positions                        : Front: L C R, Side: L R, LFE
Sampling rate                            : 48.0 KHz
Bit depth                                : 24 bits
Compression mode                         : Lossy
Stream size                              : 937 MiB (28%)
Language                                 : German
Default                                  : Yes
Forced                                   : No


Download:
Share Online Share OnlineShare OnlineShare Online
 

Kommentare